#TITLE:舞娘;
#SUBTITLE:;
#ARTIST:蔡依林;
#TITLETRANSLIT:;
#SUBTITLETRANSLIT:;
#ARTISTTRANSLIT:;
#CREDIT:;
#BANNER:5-logo.jpg;
#BACKGROUND:5.JPG;
#LYRICSPATH:;
#CDTITLE:Lan.png;
#MUSIC:5.mp3;
#OFFSET:-0.020;
#SAMPLESTART:100.000;
#SAMPLELENGTH:12.000;
#SELECTABLE:YES;
#BPMS:0.000=123.990,81.000=61.995,82.000=247.980,84.000=123.990,180.000=61.995,188.000=123.990,189.000=247.980,191.000=61.995,192.000=123.990,258.500=247.980,259.500=61.995,260.000=123.990;
#STOPS:;
#BGCHANGES:;
// cache tags:
#FIRSTBEAT:4.000;
#LASTBEAT:324.000;
#SONGFILENAME:Songs/SDO 2/5/5.sm;
#HASMUSIC:1;
#HASBANNER:1;
#MUSICLENGTH:162.524;
// end cache tags

//---------------dance-single - sky----------------
#NOTES:
     dance-single:
     sky:
     Hard:
     9:
     0.745,0.947,1.000,0.178,0.378,630.000,189.000,29.000,0.000,12.000:

0000
0000
0000
0000
,
0010
0100
1000
0100
0001
0010
0100
0010
,
1000
0000
0000
0000
0000
0000
0010
0100
1000
0000
0100
0010
0001
0000
1000
0000
,
0010
0100
0001
1000
0100
0010
0100
0001
,
1000
0000
0001
0010
0100
0000
0000
0000
1000
0000
0000
0000
0010
0000
0000
0000
,
0110
0000
1000
0100
0001
0000
1010
0000
0011
0000
0100
0000
1100
0000
0001
0000
,
1100
0000
1000
0010
0101
0000
1000
0000
0010
0000
0000
0000
0100
0000
0000
0000
,
1100
0000
0010
0001
0100
0000
1010
0000
0011
0000
0100
0000
1001
0000
0010
0000
,
1100
0000
0010
0100
0011
0000
0000
0000
1010
0000
0000
0100
0011
0000
1000
0000
,
0101
0000
0001
0100
0010
0000
1001
0000
0110
0000
0001
0000
1010
0000
0100
0000
,
0011
0000
0010
1000
0101
0000
1000
0000
0010
0000
0000
0000
0100
0000
0010
0000
,
0101
0000
0010
0100
1001
0000
0011
0000
1100
0000
0010
0000
0101
0000
0000
0000
,
1000
0000
0011
0100
1010
0000
0001
0000
0101
0000
0010
1000
0110
0000
0001
0000
,
1100
0000
0001
0010
0101
0000
1010
0000
0011
0000
0100
0000
0110
0000
0001
0000
,
1010
0000
0100
1000
0001
0000
0100
0000
0001
0000
0000
0000
0010
0000
0000
0000
,
0110
0000
0010
1000
0001
0000
0101
0000
0010
0000
1000
0000
0101
0000
0000
0000
,
0100
0000
0000
1000
0001
0000
0010
0000
0100
0000
0000
0000
0010
0000
0000
0000
,
0101
0000
0001
0010
1100
0000
0100
0000
0010
0000
1000
0000
0101
0000
0010
0000
,
0011
0000
0100
1000
0010
0000
0001
0000
0100
0000
0000
0000
0010
0000
0000
0000
,
0001
0100
0000
0000
0000
0000
0000
0000
,
0000
1000
0020
0000
0000
0000
0030
0000
,
0011
0000
1000
0001
0010
0000
0100
0000
1001
0000
0000
0000
0101
0000
0010
0000
,
0100
0000
0001
1000
0110
0000
0001
0000
0100
0000
0000
0000
1000
0000
0010
0000
,
0101
0000
0010
1000
0110
0000
0012
0000
1000
0000
0000
0000
0010
0000
0013
0000
,
1100
0000
0010
0000
0101
0000
0020
0000
1000
0000
0000
0100
0001
0000
1030
0000
,
0101
0000
0010
1000
0001
0000
0100
0000
0010
0000
0000
0000
1010
0000
0100
0000
,
0010
0000
1000
0100
0012
0000
0010
0000
1000
0000
0000
0000
0103
0000
0010
0000
,
1001
0000
0010
0100
1001
0000
0120
0000
1000
0000
0000
0000
0001
0000
0130
0000
,
1001
0000
0100
0000
0010
0000
0001
0000
1100
0000
0001
0100
0011
0000
1000
0000
,
0012
0000
0000
0100
0010
0000
1000
0000
0100
0000
0000
0000
1013
0000
0000
0000
,
1020
0000
0000
0001
0100
0000
1000
0000
0001
0000
0000
0000
1130
0000
0000
0000
,
0201
0000
0000
0010
1000
0000
0010
0000
0001
0000
0000
0000
1310
0000
0000
0000
,
2001
0000
0000
0000
0010
0000
0000
0000
0100
0000
0000
0010
3101
0000
0010
0000
,
2100
0000
0000
0010
0001
0000
0100
0000
0010
0000
0000
0000
3101
0000
0000
0000
,
0201
0000
0000
0010
1000
0000
0001
0000
0010
0000
0000
0000
1310
0000
0000
0000
,
1020
0000
0000
0001
0100
0000
1000
0000
0001
0000
0000
0000
1130
0000
0000
0000
,
0102
0000
0000
0000
0010
0000
0000
0000
1000
0000
0000
0010
1103
0000
0010
0000
,
0100
0000
0001
0100
1010
0000
0100
0000
0011
0000
0000
0000
0100
0000
0000
0000
,
0010
0000
1001
0100
0010
0000
0110
0000
1000
0000
0000
0000
0001
0000
0000
0000
,
0100
0000
0010
1000
0101
0000
0010
0000
1001
0000
0000
0000
0100
0000
0000
0000
,
0110
0000
0010
0100
1001
0000
0010
0000
0101
0000
0010
0100
1000
0000
0001
0000
,
1000
0000
0010
1000
0101
0000
0010
0000
1001
0000
0000
0000
0100
0000
0000
0000
,
0100
0000
0001
0010
1100
0000
0010
0000
0101
0000
0000
0000
0010
0000
0000
0000
,
0100
0000
0010
1000
0101
0000
0010
0000
1001
0000
0000
0000
0100
0000
0000
0000
,
0101
0000
0010
0001
1100
0000
0010
0000
0001
0000
1000
0100
0011
0000
0010
0000
,
1000
0010
0001
0100
,
0001
0010
1000
0010
,
0000
0000
2000
0000
0000
0002
0000
0000
,
3113
0010
1000
0010
0101
0000
0000
0010
0100
0000
1000
0000
0011
0000
0000
0000
,
1100
0010
0001
1010
0101
0000
0000
0100
0010
0001
1010
0000
1100
0000
0000
0000
,
0110
1000
0001
0010
1100
0000
0000
0100
0010
0000
1000
0000
0011
0000
0000
0000
,
0110
0000
1000
0010
0011
0000
0100
1000
0010
0000
0110
0000
1001
0000
0100
0000
,
0110
1000
0100
0010
1001
0000
0100
0010
1000
0010
0101
0000
1010
0000
0100
0000
,
1100
0001
0010
0100
0011
0000
1000
0010
0100
0001
1100
0000
0011
0000
0100
0000
,
0110
1000
0100
0010
0101
0000
0010
1000
0100
0001
0110
0000
1001
0000
0100
0000
,
0010
0001
0000
0100
1000
0000
0000
0010
0001
0000
1100
0000
0011
0000
0110
0000
,
0101
0010
0100
1100
0011
0010
0000
0100
0010
0000
1100
0010
0011
0000
0100
0000
,
0101
0001
0001
1001
0011
0000
1000
0001
0100
0100
0101
0100
1010
0010
0010
0000
,
0101
0000
0001
0011
1100
1000
1000
0100
0001
0000
0110
0000
1010
0000
0001
0001
,
0110
0010
0010
1000
1001
1000
1000
0000
0100
0000
0011
0001
0011
0000
0000
0000
,
1010
0010
0010
0100
1001
1000
0000
0100
0001
0001
0011
0100
1100
0100
0000
0000
,
0101
0000
0001
0010
1001
0000
0010
0011
0010
0000
1010
0000
0101
0100
0100
0100
,
1001
0000
0010
1010
0011
0000
0001
1001
0001
0010
0110
0010
1001
1000
1000
1000
,
0020
0000
2030
0000
,
0000
0000
3202
0000
,
1313
0000
0001
1000
0100
0000
0001
0000
1010
0000
0000
0000
0101
0000
0010
0000
,
0001
0000
0010
0100
1002
0000
0010
0000
0100
0000
0000
0000
0010
0000
1003
0000
,
0101
0000
0010
0100
1001
0000
0120
0000
0001
0000
0000
0000
1000
0000
0130
0000
,
1001
0000
0010
0000
0101
0000
2000
0000
0001
0000
0000
0100
0010
0000
3001
0000
,
0101
0000
0001
0100
0010
0000
1000
0000
0100
0000
0000
0000
0011
0000
0100
0000
,
1000
0000
0001
0010
0201
0000
1000
0000
0010
0000
0000
0000
0001
0000
0310
0000
,
0101
0000
0010
0100
1001
0000
0012
0000
0100
0000
0000
0000
1000
0000
0013
0000
,
0200
0000
0000
0000
,
1310
0000
0001
1000
0010
0000
0100
0000
0001
0000
0000
0000
1010
0000
0100
0000
,
0001
0000
0010
1000
0021
0000
1000
0000
0100
0000
0000
0000
0100
0000
0031
0000
,
1010
0000
0100
0010
1001
0000
0210
0000
1000
0000
0000
0000
0010
0000
0301
0000
,
1010
0000
0100
0000
1001
0000
0020
0000
0100
0000
0000
0001
0100
0000
1030
0000
,
1010
0000
0100
1000
0010
0000
0001
0000
0100
0000
0000
0000
1001
0000
0010
0000
,
1000
0000
0001
0100
2001
0000
0010
0000
0100
0000
0000
0000
0001
0000
3010
0000
,
0101
0000
0001
0100
1000
0000
0001
0000
0010
0000
0000
0000
0100
0000
0001
0000
,
1010
0000
0010
0000
0100
0000
0010
0000
0001
0000
1000
0100
0011
0000
0100
0000
,
1001
0000
0000
0000
;
